Política | Descargar | Play Movie

Phantom Thread 2017 DVDSCR x264 AC3 TiTAN

Fixed!
Phantom Thread 2017 DVDSCR x264 AC3 TiTAN

Phantom Thread 2017 DVDSCR x264 AC3 TiTAN
Rating 8.3 / 1012,501 people voted
Released 2017
Genre Drama, Romance
Actors Vicky Krieps, Daniel Day-Lewis, Lesley Manville, Sue Clark, Joan Brown, Harriet Leitch, Dinah Nicholson, Julie Duck, Maryanne Frost, Elli Banks, Amy Cunningham, Amber Brabant, Geneva Corlett, Juliet Glaves, Camilla Rutherford

IMDB link http://www.imdb.com/title/tt5776858/

Plot Set in 1950s London, Reynolds Woodcock is a renowned dressmaker whose fastidious life is disrupted by a young, strong-willed woman, Alma, who becomes his muse and lover.

Phantom Thread 2017 DVDSCR x264 AC3 TiTANPhantom Thread 2017 DVDSCR x264 AC3 TiTANPhantom Thread 2017 DVDSCR x264 AC3 TiTANPhantom Thread 2017 DVDSCR x264 AC3 TiTAN

Source: DrinkBetterWater

Phantom Thread 2017 DVDSCR x264 AC3 TiTAN
General
Format                      : Matroska
Format version              : Version 2
File size                   : 1.31 GiB
Duration                    : 2 h 10 min
Overall bit rate mode       : Variable
Overall bit rate            : 1 445 kb/s


Video
ID                          : 1
Format                      : AVC
Format/Info                 : Advanced Video Codec
Format profile              : [email protected]
Format settings             : CABAC / 3 Ref Frames
Format settings, CABAC      : Yes
Format settings, ReFrames   : 3 frames
Codec ID                    : V_MPEG4/ISO/AVC
Duration                    : 2 h 10 min
Bit rate mode               : Variable
Bit rate                    : 1 250 kb/s
Maximum bit rate            : 40.0 Mb/s
Width                       : 720 pixels
Height                      : 384 pixels
Display aspect ratio        : 1.85:1
Frame rate mode             : Constant
Frame rate                  : 23.976 (24000/1001) FPS
Color space                 : YUV
Chroma subsampling          : 4:2:0
Bit depth                   : 8 bits
Scan type                   : Progressive
Bits/(Pixel*Frame)          : 0.189
Stream size                 : 1.14 GiB (87%)
Default                     : Yes
Forced                      : No
Color range                 : Full
Color primaries             : BT.709
Transfer characteristics    : BT.709
Matrix coefficients         : BT.709

Audio
ID                          : 2
Format                      : AC-3
Format/Info                 : Audio Coding 3
Codec ID                    : A_AC3
Duration                    : 2 h 10 min
Bit rate mode               : Constant
Bit rate                    : 192 kb/s
Channel(s)                  : 2 channels
Channel positions           : Front: L R
Sampling rate               : 48.0 kHz
Frame rate                  : 31.250 FPS (1536 SPF)
Bit depth                   : 16 bits
Compression mode            : Lossy
Stream size                 : 179 MiB (13%)
Service kind                : Complete Main
Default                     : Yes
Forced                      : No


http://www.filefactory.com/file/5vloxueo72f5/Phantom.Thread.2017.DVDSCR.x264.AC3-TiTAN.mkv

http://www.filefactory.com/file/3zle84qt9c41/Phantom.Thread.2017.DVDSCR.x264-drnkBetterWater.mkv

http://uploaded.net/file/ch3e7m7j/Phantom.Thread.2017.DVDSCR.x264.AC3-TiTAN.mkv

http://uploaded.net/file/ev5isr23/Phantom.Thread.2017.DVDSCR-DrnkBetterWater.mkv

http://rapidgator.net/file/7f00f2b8eace7f042020b86b11444fab/Phantom.Thread.2017.DVDSCR.x264.AC3-TiTAN.mkv.html

http://rapidgator.net/file/a8ce45f1f3d8d12b5ccb9bd2054901b2/Phantom.Thread.2017.DVDSCR.x264-drnkBetterWater.mkv.html

http://openload.co/f/zAGAWUyKKT0/Phantom.Thread.2017.DVDSCR.x264.AC3-TiTAN.mkv.mp4
dle 11.0
Donate Bitcoin 1SLKcwi5VbQrpoKnXUGfBLVcj3VCWVfnQ
Donate Ether 0x032f4d361571dA8cF5602D3C73530817365052B8
0
Information
Users of Guests are not allowed to comment this publication.