CSI: Cyber | The Paradise | Idris Elba

Unrest 2017 720p WEB x264-STRiFE

Fixed!
Unrest 2017 720p WEB x264-STRiFE

Unrest 2017 720p WEB x264-STRiFE
Rating 8.2/10 1,481 people voted
Released 2017
Genre Documentary | Drama | History | Romance
Actors Jennifer Brea, Omar Wasow, Jessica l e Taylor

IMDB link http://www.imdb.com/title/tt3268850/

Plot When Harvard PhD student Jennifer Brea is struck down at 28 by a fever that leaves her bedridden, doctors tell her it's "all in her head." Determined to live, she turns her camera on herself and her community, a hidden world of millions confined to their homes and bedrooms by ME, commonly called chronic fatigue syndrome.

Unrest 2017 720p WEB x264-STRiFE

Video
ID                                       : 1
Format                                   : AVC
Format/Info                              : Advanced Video Codec
Format profile                           : [email protected]
Format settings                          : CABAC / 3 Ref Frames
Format settings, CABAC                   : Yes
Format settings, RefFrames               : 3 frames
Codec ID                                 : V_MPEG4/ISO/AVC
Duration                                 : 1 h 37 min
Bit rate mode                            : Variable
Bit rate                                 : 3 320 kb/s
Maximum bit rate                         : 4 980 kb/s
Width                                    : 1 280 pixels
Height                                   : 720 pixels
Display aspect ratio                     : 16:9
Frame rate mode                          : Constant
Frame rate                               : 23.976 (24000/1001) FPS
Color space                              : YUV
Chroma subsampling                       : 4:2:0
Bit depth                                : 8 bits
Scan type                                : Progressive
Bits/(Pixel*Frame)                       : 0.150
Stream size                              : 2.25 GiB (90%)
Writing library                          : x264 core 148 r2714 2daf636
Default                                  : Yes
Forced                                   : No

Audio
ID                                       : 2
Format                                   : AC-3
Format/Info                              : Audio Coding 3
Format settings, Endianness              : Big
Codec ID                                 : A_AC3
Duration                                 : 1 h 37 min
Bit rate mode                            : Constant
Bit rate                                 : 384 kb/s
Channel(s)                               : 6 channels
Channel positions                        : Front: L C R, Side: L R, LFE
Sampling rate                            : 48.0 kHz
Frame rate                               : 31.250 FPS (1536 SPF)
Bit depth                                : 16 bits
Compression mode                         : Lossy
Stream size                              : 268 MiB (10%)
Language                                 : English
Service kind                             : Complete Main
Default                                  : Yes
Forced                                   : No

Text #1
ID                                       : 3
Format                                   : UTF-8
Codec ID                                 : S_TEXT/UTF8
Codec ID/Info                            : UTF-8 Plain Text
Duration                                 : 30 min 49 s
Bit rate                                 : 16 b/s
Count of elements                        : 90
Stream size                              : 3.69 KiB (0%)
Title                                    : Forced
Language                                 : English
Default                                  : Yes
Forced                                   : Yes

Text #2
ID                                       : 4
Format                                   : UTF-8
Codec ID                                 : S_TEXT/UTF8
Codec ID/Info                            : UTF-8 Plain Text
Duration                                 : 1 h 32 min
Bit rate                                 : 67 b/s
Count of elements                        : 1151
Stream size                              : 45.6 KiB (0%)
Language                                 : English
Default                                  : No
Forced                                   : No

Text #3
ID                                       : 5
Format                                   : UTF-8
Codec ID                                 : S_TEXT/UTF8
Codec ID/Info                            : UTF-8 Plain Text
Duration                                 : 1 h 35 min
Bit rate                                 : 62 b/s
Count of elements                        : 1074
Stream size                              : 43.7 KiB (0%)
Language                                 : Dutch
Default                                  : No
Forced                                   : No

Text #4
ID                                       : 6
Format                                   : UTF-8
Codec ID                                 : S_TEXT/UTF8
Codec ID/Info                            : UTF-8 Plain Text
Duration                                 : 1 h 35 min
Bit rate                                 : 56 b/s
Count of elements                        : 1073
Stream size                              : 39.7 KiB (0%)
Title                                    : European
Language                                 : Spanish
Default                                  : No
Forced                                   : No

Text #5
ID                                       : 7
Format                                   : UTF-8
Codec ID                                 : S_TEXT/UTF8
Codec ID/Info                            : UTF-8 Plain Text
Duration                                 : 1 h 35 min
Bit rate                                 : 61 b/s
Count of elements                        : 1073
Stream size                              : 43.1 KiB (0%)
Language                                 : French
Default                                  : No
Forced                                   : No

Text #6
ID                                       : 8
Format                                   : UTF-8
Codec ID                                 : S_TEXT/UTF8
Codec ID/Info                            : UTF-8 Plain Text
Duration                                 : 1 h 35 min
Bit rate                                 : 63 b/s
Count of elements                        : 1052
Stream size                              : 44.1 KiB (0%)
Language                                 : German
Default                                  : No
Forced                                   : No


http://www.filefactory.com/file/5vkzqaejyhz5/unrest.2017.720p.web.x264-strife.mkv

http://www.filefactory.com/file/6q2ynhnd8d7t/unrest.2017.web.x264-strife.mkv

http://rapidgator.net/file/ac07d44fc7d9b8c1f0a4f9d466d24a51/unrest.2017.720p.web.x264-strife.mkv.html

http://rapidgator.net/file/76fbb2be91b7c8bd659088385c08358d/unrest.2017.web.x264-strife.mkv.html

http://uploaded.net/file/50gfgghp/unrest.2017.1080p.web.x264-strife.mkv
http://uploaded.net/file/21z1ntx8/unrest.2017.720p.web.x264-strife.mkv
http://uploaded.net/file/46wdvgfu/unrest.2017.web.x264-strife.mkv

http://openload.co/f/PeTxK_iJZHI/unrest.2017.1080p.web.x264-strife.mkv
http://openload.co/f/R-VaayEvL3w/unrest.2017.720p.web.x264-strife.mkv.mp4
http://openload.co/f/bMlbUivOwbk/unrest.2017.web.x264-strife.mkv.mp4
dle 11.0
Donate Bitcoin 1SLKcwi5VbQrpoKnXUGfBLVcj3VCWVfnQ
Donate Ether 0x032f4d361571dA8cF5602D3C73530817365052B8
0
Information
Users of Guests are not allowed to comment this publication.